#TITLE:Love To Love;
#SUBTITLE:;
#ARTIST:Angela Zhang Shao Han;
#TITLETRANSLIT:Love To Love;
#SUBTITLETRANSLIT:;
#ARTISTTRANSLIT:Truong Thieu Ham;
#CREDIT:;
#BANNER:Love To Love-bn.png;
#BACKGROUND:Love To Love-bg.png;
#LYRICSPATH:;
#CDTITLE:pm4cd.png;
#MUSIC:Love To Love.mp3;
#OFFSET:0.160;
#SAMPLESTART:90.380;
#SAMPLELENGTH:20.000;
#SELECTABLE:YES;
#BPMS:0.000=115.000;
#STOPS:;
#BGCHANGES:1.250=Love To Love.avi=1.000=0=0=1,
378.500=Love To Love-bg.png=1.000=0=0=1,
99999=-nosongbg-=1.000=0=0=0 // don't automatically add -songbackground-
;
// cache tags:
#FIRSTBEAT:0.750;
#LASTBEAT:378.750;
#SONGFILENAME:Songs/Music V.I.P ^_^/Love To Love/Love To Love.sm;
#HASMUSIC:1;
#HASBANNER:1;
#MUSICLENGTH:201.665;
// end cache tags

//---------------dance-single - ----------------
#NOTES:
     dance-single:
     :
     Hard:
     10:
     0.847,1.000,1.000,0.119,1.000,670.000,388.000,24.000,0.000,149.000:
0000
0000
0000
0200
0000
0000
0000
0000
0000
0000
0000
0000
0000
0000
0000
0000
,
0000
0000
0000
1322
0000
0000
0000
0000
0000
0000
0000
1000
0000
0000
0000
0000
,
0000
0000
0000
2233
0000
0000
0000
0000
0000
0000
0000
0010
0000
0000
0000
0010
,
0000
0000
0000
3302
0000
0000
0000
0000
0000
0000
0000
0100
0000
0000
0000
0100
,
0000
0000
0000
2203
0000
0000
0000
0000
0000
0000
0000
0000
0000
0000
0000
0000
,
0000
0000
0010
3301
0000
0000
0000
1100
0000
0000
0000
0010
0000
0001
0000
1100
,
0000
0000
0000
0001
0000
0100
0000
0011
0000
1000
0000
0010
0000
0000
0000
0101
,
0000
0000
0000
1000
0000
0000
0000
0011
0000
0000
0000
1000
0000
0001
0000
1010
,
0000
0000
0000
0010
0000
0100
0000
1001
0000
0100
0000
1010
0000
0000
0000
0110
,
0000
0000
0000
0100
0000
0000
0000
1010
0000
0000
0000
1000
0000
0100
0000
0011
,
0000
0000
0000
0100
0000
1000
0000
0101
0000
0010
0000
1000
0000
0000
0000
0101
,
0000
0000
0000
1000
0000
0000
0000
1010
0000
0000
0000
0100
0000
1000
0000
0101
,
0000
0000
0000
0100
0000
0001
0000
1100
0000
0001
0000
1100
0000
0000
0000
0110
,
0000
0000
0000
1100
0000
0000
0000
0000
0000
0011
0000
0110
0000
0000
0000
0000
,
0000
0000
0000
1010
0000
0000
0000
0000
0000
0101
0000
1010
0000
0000
0000
0000
,
0000
0000
0000
1100
0000
0000
0000
0000
0000
0011
0000
0110
0000
0000
0000
0000
,
0000
0000
0000
1010
0000
0000
1010
0000
0000
1010
0000
1010
0000
0000
0000
1010
,
0000
0000
0000
1100
0000
0000
0000
0000
0000
1010
0000
1101
0000
0000
0000
0000
,
0000
0000
0000
0101
0000
0000
0000
0000
0000
1101
0000
0110
0000
0000
0000
0000
,
0000
0000
0000
1010
0000
0000
0000
0000
0000
0101
0000
1101
0000
0000
0000
0000
,
0000
0000
0000
0101
0000
0000
0101
0000
0000
0101
0000
0101
0000
0000
0000
1101
,
0000
0000
0000
0010
0000
0001
0000
0110
0000
1000
0000
0100
0000
0010
0000
0101
,
0000
0010
0000
1000
0000
0010
0000
0101
0000
1000
0000
0100
0000
0001
0000
1100
,
0000
0010
0000
0001
0000
1000
0000
1010
0000
0100
0000
0010
0000
0100
0000
0011
,
0000
0010
0000
1010
0101
0000
0000
0101
0000
0100
0000
1100
0000
0010
0000
0101
,
0101
0101
0000
1011
0000
0100
0000
1010
0000
0100
0000
0001
0000
0100
0000
1100
,
0000
0100
0000
0010
0000
0010
0000
1100
0000
0001
0000
0101
1010
0110
0000
1010
,
0000
0001
0000
0100
0000
1000
0000
0011
0000
1000
0000
0010
0000
0100
0000
0011
,
0000
0100
0000
1000
0000
0010
0000
0101
0000
0010
0000
1100
0000
0010
0000
1100
,
1100
1100
0000
0101
0000
0010
0000
1100
0000
0010
0000
0100
0000
0001
0000
1010
,
0000
0100
0000
0010
0000
1000
0000
0101
0000
0010
0000
1100
0110
1100
0000
0101
,
0000
0010
0000
1000
0000
0010
0000
0101
0000
0010
0000
1000
0000
0010
0000
1100
,
0000
0010
0000
1000
0100
1000
0000
0110
0000
0001
0000
0110
0000
0001
0000
0110
,
0000
0001
0000
0110
0000
0011
0000
1100
0110
1100
0110
0001
0000
0010
0010
0010
,
0000
0110
1000
0110
0000
1100
0000
1100
0100
0110
0011
0010
0000
0100
0100
1100
,
0000
0001
0000
1010
0000
1001
0000
0110
0010
1010
1001
0200
0000
0001
0001
0001
,
0000
0001
0300
1000
0000
0100
0000
0010
0000
0010
0100
0010
0000
1000
0000
1000
,
0000
1000
0000
1000
0000
0100
0000
0010
0000
1000
0100
1000
0000
0100
0000
0010
,
0000
0000
0000
0001
0000
0010
0000
0100
0000
0001
0010
0001
0000
0010
0000
0100
,
0000
0000
0000
1100
0000
0110
0000
0011
0000
1010
0101
1010
0000
0110
0000
0011
,
0000
0000
0000
0011
0000
0110
0000
1100
0000
0101
1010
0101
0000
0111
0000
1110
,
0000
0100
0000
0101
0000
0010
0000
1000
0000
0100
0010
0100
0000
0001
0000
0010
,
0000
0100
0000
0101
0000
1000
0000
0010
0000
0001
0010
0001
0000
0100
0000
1010
,
0000
0010
0000
0100
0000
0001
0000
0100
0000
0010
0001
0010
0000
0100
0000
1000
,
0000
0100
0000
0011
0000
0000
1100
0000
0000
0100
0001
1100
0000
1100
0000
1100
,
0000
1100
0000
1100
0000
0001
0000
1010
0000
0100
0000
0010
0000
0100
0000
0101
,
0000
1000
0000
0100
0000
0010
0000
0101
0000
1100
0000
1100
0000
0010
0000
0101
,
0000
0010
0000
1010
0000
0001
0000
0010
0000
1100
0000
1100
0000
0010
0000
0101
,
0000
0010
0000
1100
0101
0000
0000
0011
0000
0100
0000
1010
0000
0001
0000
0101
,
0011
0101
0000
2001
0000
0010
0000
0110
0000
0010
0000
0001
0000
0010
0000
0101
,
0000
0010
0000
3012
0000
0100
0000
0110
0000
0100
0000
1100
0110
1100
0000
1100
,
0000
0010
0000
1203
0000
0010
0000
1001
0000
0001
0000
1000
0000
0010
0000
1001
,
0000
0010
0000
0320
0000
1000
0000
1100
0000
0001
0000
1100
0000
0001
0000
1100
,
1100
1100
0000
0031
0000
0011
0000
1110
0000
0110
0000
0011
0000
0101
0000
1101
,
0000
0011
0000
0110
0000
0101
0000
1011
0000
0110
0000
1010
0101
1010
0000
0111
,
0000
0011
0000
1010
0000
0011
0000
1101
0000
0110
0000
1100
0000
0011
0000
0111
,
0000
1100
0000
0011
1100
0011
0000
1110
0000
0110
0000
0111
0000
0011
0000
1101
,
0000
0001
0010
0002
0000
0010
0000
0010
0000
0100
0000
0100
0000
1000
0000
1000
,
0000
0100
0000
0203
0000
1000
0000
1001
0000
0011
0000
0011
0000
1010
0000
1010
,
0000
0010
1000
1310
0000
0000
0000
0011
0000
0000
0000
0100
0000
1000
0000
0110
,
0000
0000
0000
1000
0000
0001
0000
0101
0000
1000
0000
0100
0000
0000
0000
1010
,
0000
0000
0000
0001
0000
0000
0000
1100
0000
0000
0000
0010
0000
0100
0000
1001
,
0000
0000
0000
0001
0000
0010
0000
1100
0000
0010
0000
0101
0000
0000
0000
1100
,
0000
0000
0000
0001
0000
0000
0000
1010
0000
0000
0000
0001
0000
0100
0000
1010
,
0000
0000
0000
0100
0000
1000
0000
0011
0000
0010
0000
1000
0000
0000
0000
0011
,
0000
0000
0000
1000
0000
0000
0000
0101
0000
0000
0000
0100
0000
0010
0000
1100
,
0000
0000
0000
0001
0000
0010
0000
0101
0000
0010
0000
1100
0000
0000
0000
0110
,
0000
0000
0000
1101
0000
0010
0000
1101
0000
0010
0000
1101
0000
1101
0000
1101
,
0000
0010
0000
1111
0000
2000
0000
0200
0000
0002
3010
2000
0300
0120
0003
0101
,
0101
3101
0000
1131
0000
0011
0000
0110
0000
1001
0000
0110
0000
0101
0000
1110
,
0000
0101
0000
0110
0000
1001
0000
1011
0000
1100
0000
0110
1100
0011
0000
0111
,
0000
0000
0000
0101
0000
0011
0000
0111
0000
0110
0000
1010
0000
0110
0000
1101
,
0000
0011
0000
0101
0000
0110
0000
1011
0000
1100
0000
1001
0000
0110
0000
0011
,
0110
1100
0000
1011
0000
1100
0000
0111
0000
1001
0000
1011
0000
0110
0000
1011
,
0000
1010
0000
1011
0000
0101
0000
1101
0000
0110
0000
1101
0110
1101
0000
0111
,
0000
0000
0000
1110
0000
0011
0000
1101
0000
0110
0000
1110
0000
1100
0000
1110
,
0000
0101
0000
1011
1100
1011
0000
1110
0000
1010
0000
1101
0000
1001
0000
2012
,
0000
0000
3003
0111
0000
1101
0000
1011
0000
1101
0000
0111
0000
1110
0000
0111
,
0000
1101
0000
1110
0000
1011
0000
0111
0000
1110
0000
1101
1011
1101
0000
1110
,
0000
0000
0000
1011
0000
1101
0000
1011
0000
1110
0000
1101
0000
0111
0000
1011
,
0000
1110
0000
1011
0000
0111
0000
1101
0000
1110
0000
0111
0000
1110
0000
1101
,
1101
1101
0000
1110
0000
1011
0000
0111
0000
1101
0000
1011
0000
1110
0000
0111
,
0000
1110
0000
1011
0000
1101
0000
0111
0000
1101
0000
1110
0111
1110
0000
1101
,
0000
0000
0000
0111
0000
1110
0000
0111
0000
1011
0000
1101
0000
1011
0000
1110
,
0000
1011
0000
1011
1101
1011
0000
1101
0000
0111
0000
1110
0000
0011
0000
1110
,
0000
1010
0101
1010
0000
0000
0000
0110
0000
0000
0000
0011
0000
0110
0000
1100
,
0000
0000
0000
0101
0000
0011
0000
1100
0000
0101
0000
0110
0000
0000
0000
1010
,
0000
0000
0000
0101
0000
0000
0000
0110
0000
0000
0000
0101
0000
0110
0000
1100
,
0000
0000
0000
1100
0000
0011
0000
0101
0000
1010
0000
0101
0000
0000
0000
0101
,
0000
0000
0000
1000
0100
0010
1000
0000
0000
0100
0000
0100
0000
0100
0000
0001
,
0000
0001
0000
0001
0000
1000
0000
1000
0000
0010
0010
0002
0000
0000
0000
0000
,
0000
0000
0003
0001
0010
0100
0010
0000
0000
0001
0000
0001
0000
0001
0000
1000
,
0000
1000
0000
1000
0000
0100
0000
0100
0010
0010
0000
0002
0000
0000
0000
0000
,
0000
0000
0003
1000
0100
0010
1000
0000
0000
0001
0000
0001
0000
0000
0000
0000
,
0000
0000
0000
1000
0000
0000
0010
0000
0000
0100
0000
1000
0000
0000
0000
0000
;

//---------------dance-single - ----------------
#NOTES:
     dance-single:
     :
     Medium:
     1:
     0.000,0.000,0.000,0.000,0.000,0.000,0.000,0.000,0.000,0.000:
0000
0000
0000
0000
;
